[MagicStar] Sawako ~Sore wa, Hatenaki Fukushuu EP08 [WEBDL] [1080p] [AMZN] [JPN_SUB] :: Nyaa ISS

[MagicStar] Sawako ~Sore wa, Hatenaki Fukushuu EP08 [WEBDL] [1080p] [AMZN] [JPN_SUB]

Category:
Date:
2022-11-26 19:11 UTC
Submitter:
Seeders:
1
Information:
Leechers:
0
File size:
2.1 GiB
Completed:
392
Info hash:
b6df3cd6e0b16133ea6d6ceea37edaa59ab81560
HD 1080p from Prime Video. Use CBR bitrate mode. Japanese subtitles added. ************** We are planning to upload all prime video japan Dramas and Movies, we need your Support! ************** Support Us Ali (Zhifubao / QR code): https://i.ibb.co/FWV2ggm/1660626347125.png PayPalMe: https://www.paypal.com/paypalme/sakuragikenji ************** ![alt text](https://i.ibb.co/jfg0WTy/96172278341.jpg) ![alt text](https://i.ibb.co/x87h5F4/Sawako-Sore-wa-Hatenaki-Fukushuu-EP08-1080p-AMZN-WEB-DL-DDP2-0-H-264-Magic-Star-mkv.jpg) ``` General Unique ID : 106498142498105878414471774647452906503 (0x501ECBD186CED976F75FF9AAE8EF3407) Complete name : Sawako.Sore.wa.Hatenaki.Fukushuu.EP08.1080p.AMZN.WEB-DL.DDP2.0.H.264-MagicStar.mkv Format : Matroska Format version : Version 4 File size : 2.14 GiB Duration : 44 min 23 s Overall bit rate mode : Constant Overall bit rate : 6 909 kb/s Encoded date : UTC 2022-11-23 23:58:03 Writing application : mkvmerge v50.0.0 ('Awakenings') 64-bit Writing library : libebml v1.4.0 + libmatroska v1.6.2 Cover : Yes Attachments : cover.png Video ID : 1 Format : AVC Format/Info : Advanced Video Codec Format profile : [email protected] Format settings : CABAC / 4 Ref Frames Format settings, CABAC : Yes Format settings, Reference fra : 4 frames Codec ID : V_MPEG4/ISO/AVC Duration : 44 min 23 s Bit rate mode : Constant Bit rate : 6 674 kb/s Nominal bit rate : 10 000 kb/s Width : 1 920 pixels Height : 1 080 pixels Display aspect ratio : 16:9 Frame rate mode : Constant Frame rate : 29.970 (29970/1000) FPS Original frame rate : 29.970 (30000/1001) FPS Color space : YUV Chroma subsampling : 4:2:0 Bit depth : 8 bits Scan type : Progressive Bits/(Pixel*Frame) : 0.107 Stream size : 2.07 GiB (97%) Default : Yes Forced : No Color range : Limited Color primaries : BT.709 Transfer characteristics : BT.709 Matrix coefficients : BT.709 Audio ID : 2 Format : E-AC-3 Format/Info : Enhanced AC-3 Commercial name : Dolby Digital Plus Codec ID : A_EAC3 Duration : 44 min 23 s Bit rate mode : Constant Bit rate : 224 kb/s Channel(s) : 2 channels Channel layout : L R Sampling rate : 48.0 kHz Frame rate : 31.250 FPS (1536 SPF) Compression mode : Lossy Stream size : 71.1 MiB (3%) Language : Japanese Service kind : Complete Main Default : Yes Forced : No ```

File list