[MagicStar] Yuugure ni, Te wo Tsunagu EP01 [WEBDL] [1080p] [JPN_SUB] :: Nyaa ISS

[MagicStar] Yuugure ni, Te wo Tsunagu EP01 [WEBDL] [1080p] [JPN_SUB]

Category:
Date:
2023-01-24 04:48 UTC
Submitter:
Seeders:
12
Information:
Leechers:
4
File size:
1.6 GiB
Completed:
509
Info hash:
585c901eadda4a5b773e938ebf084c8c116afb51
HD 1080p from TBS official website. No watermark version. Japanese subtitles added. Audio description added. ![alt text](https://i.ibb.co/686DtCq/96411400325.jpg) ![alt text](https://i.ibb.co/sVFR9kF/Magic-Star-Yuugure-ni-Te-wo-Tsunagu-EP01-WEBDL-1080p-mkv.jpg) ``` General Unique ID : 329341799830156421538453303122890187342 (0xF7C4EC6575496A24A9EA1504D0B9E24E) Complete name : [MagicStar] Yuugure ni, Te wo Tsunagu EP01 [WEBDL] [1080p].mkv Format : Matroska Format version : Version 4 File size : 1.65 GiB Duration : 1 h 0 min Overall bit rate mode : Variable Overall bit rate : 3 873 kb/s Encoded date : UTC 2023-01-19 05:05:32 Writing application : mkvmerge v50.0.0 ('Awakenings') 64-bit Writing library : libebml v1.4.0 + libmatroska v1.6.2 Video ID : 1 Format : AVC Format/Info : Advanced Video Codec Format profile : [email protected] Format settings : CABAC / 4 Ref Frames Format settings, CABAC : Yes Format settings, Reference fra : 4 frames Codec ID : V_MPEG4/ISO/AVC Duration : 1 h 0 min Bit rate mode : Variable Bit rate : 3 487 kb/s Maximum bit rate : 40.0 Mb/s Width : 1 920 pixels Height : 1 080 pixels Display aspect ratio : 16:9 Frame rate mode : Constant Frame rate : 29.970 (29970/1000) FPS Original frame rate : 29.970 (30000/1001) FPS Color space : YUV Chroma subsampling : 4:2:0 Bit depth : 8 bits Scan type : Progressive Bits/(Pixel*Frame) : 0.056 Stream size : 1.48 GiB (90%) Default : Yes Forced : No Color range : Limited Color primaries : BT.709 Transfer characteristics : BT.709 Matrix coefficients : BT.709 Audio #1 ID : 2 Format : AAC LC Format/Info : Advanced Audio Codec Low Complexity Codec ID : A_AAC-2 Duration : 1 h 0 min Bit rate : 192 kb/s Channel(s) : 2 channels Channel layout : L R Sampling rate : 48.0 kHz Frame rate : 46.875 FPS (1024 SPF) Compression mode : Lossy Stream size : 83.3 MiB (5%) Title : 日本語 [オリジナル] Language : Japanese Default : Yes Forced : No Audio #2 ID : 3 Format : AAC LC Format/Info : Advanced Audio Codec Low Complexity Codec ID : A_AAC-2 Duration : 1 h 0 min Bit rate : 192 kb/s Channel(s) : 2 channels Channel layout : L R Sampling rate : 48.0 kHz Frame rate : 46.875 FPS (1024 SPF) Compression mode : Lossy Stream size : 83.4 MiB (5%) Title : 日本語 [解説放送音声] Language : Japanese Default : No Forced : No ```

File list

please batch or seed Renai Mangaka

MagicStar-subs (uploader)

User
@shishibaba Upload soon.

MagicStar-subs (uploader)

User
@shishibaba ^ _ < Batch uploaded. Supplement ep01 to ep06 japanese subtitles.