[MagicStar] Aibou Season21 EP13 [WEBDL] [1080p] [JPN_SUB] :: Nyaa ISS

[MagicStar] Aibou Season21 EP13 [WEBDL] [1080p] [JPN_SUB]

Category:
Date:
2023-01-24 04:57 UTC
Submitter:
Seeders:
18
Information:
Leechers:
4
File size:
1.3 GiB
Completed:
700
Info hash:
1ce7a12c45574f28202144e1c4990aebf4fa811d
HD 1080p from official website. No watermark version. Japanese subtitles added. ![alt text](https://i.ibb.co/tP9J6q8/170ab29e-ef30-428d-a4b0-ef4d793f89ee.jpg) ![alt text](https://i.ibb.co/60F0vDF/Magic-Star-Aibou-Season21-EP13-WEBDL-1080p-mkv.jpg) ``` General Unique ID : 96722403994969450942079403416022999198 (0x48C40EB2BAE03DD59F9663C9B638E09E) Complete name : [MagicStar] Aibou Season21 EP13 [WEBDL] [1080p].mkv Format : Matroska Format version : Version 4 File size : 1.31 GiB Duration : 44 min 42 s Overall bit rate mode : Variable Overall bit rate : 4 200 kb/s Encoded date : UTC 2023-01-19 05:01:08 Writing application : mkvmerge v50.0.0 ('Awakenings') 64-bit Writing library : libebml v1.4.0 + libmatroska v1.6.2 Video ID : 1 Format : AVC Format/Info : Advanced Video Codec Format profile : [email protected] Format settings : CABAC / 4 Ref Frames Format settings, CABAC : Yes Format settings, Reference fra : 4 frames Codec ID : V_MPEG4/ISO/AVC Duration : 44 min 42 s Bit rate mode : Variable Bit rate : 4 003 kb/s Maximum bit rate : 40.0 Mb/s Width : 1 920 pixels Height : 1 080 pixels Display aspect ratio : 16:9 Frame rate mode : Constant Frame rate : 29.970 (29970/1000) FPS Original frame rate : 29.970 (30000/1001) FPS Color space : YUV Chroma subsampling : 4:2:0 Bit depth : 8 bits Scan type : Progressive Bits/(Pixel*Frame) : 0.064 Stream size : 1.25 GiB (95%) Default : Yes Forced : No Audio ID : 2 Format : AAC LC Format/Info : Advanced Audio Codec Low Complexity Codec ID : A_AAC-2 Duration : 44 min 42 s Bit rate : 192 kb/s Channel(s) : 2 channels Channel layout : L R Sampling rate : 44.1 kHz Frame rate : 43.066 FPS (1024 SPF) Compression mode : Lossy Stream size : 62.2 MiB (5%) Title : 日本語 [オリジナル] Language : Japanese Default : Yes Forced : No ```

File list