[MagicStar] Stand Up Start EP01 [WEBDL] [1080p] [FOD] [JPN_SUB] :: Nyaa ISS

[MagicStar] Stand Up Start EP01 [WEBDL] [1080p] [FOD] [JPN_SUB]

Category:
Date:
2023-01-24 05:02 UTC
Submitter:
Seeders:
13
Information:
Leechers:
4
File size:
1.9 GiB
Completed:
588
Info hash:
70650950e4707a33313fb8ac6241089a7f29d038
HD 1080p from FOD. Japanese subtitles added. Audio description added. ![alt text](https://i.ibb.co/D9Ncvt1/493d017348b1b3e29876fc5988a3aee9d5d7e170.jpg) ![alt text](https://i.ibb.co/7X8Pq5f/Stand-Up-Start-EP01-1080p-FOD-WEB-DL-AAC2-0-H-264-Magic-Star-mkv.jpg) ``` General Unique ID : 89131276864231778577697601201785919192 (0x430E0F3C028CBF0E95AC6211F4F9D6D8) Complete name : Stand.Up.Start.EP01.1080p.FOD.WEB-DL.AAC2.0.H.264-MagicStar.mkv Format : Matroska Format version : Version 4 File size : 1.89 GiB Duration : 55 min 50 s Overall bit rate mode : Variable Overall bit rate : 4 838 kb/s Encoded date : UTC 2023-01-19 04:55:45 Writing application : mkvmerge v50.0.0 ('Awakenings') 64-bit Writing library : libebml v1.4.0 + libmatroska v1.6.2 Video ID : 1 Format : AVC Format/Info : Advanced Video Codec Format profile : [email protected] Format settings : CABAC / 2 Ref Frames Format settings, CABAC : Yes Format settings, Reference fra : 2 frames Codec ID : V_MPEG4/ISO/AVC Duration : 55 min 50 s Bit rate mode : Variable Bit rate : 4 451 kb/s Maximum bit rate : 15.0 Mb/s Width : 1 920 pixels Height : 1 080 pixels Display aspect ratio : 16:9 Frame rate mode : Constant Frame rate : 29.970 (29970/1000) FPS Original frame rate : 29.970 (30000/1001) FPS Color space : YUV Chroma subsampling : 4:2:0 Bit depth : 8 bits Scan type : Progressive Bits/(Pixel*Frame) : 0.072 Stream size : 1.74 GiB (92%) Default : Yes Forced : No Color range : Limited Color primaries : BT.709 Transfer characteristics : BT.709 Matrix coefficients : BT.709 Audio #1 ID : 2 Format : AAC LC Format/Info : Advanced Audio Codec Low Complexity Codec ID : A_AAC-2 Duration : 55 min 49 s Bit rate : 192 kb/s Channel(s) : 2 channels Channel layout : L R Sampling rate : 48.0 kHz Frame rate : 46.875 FPS (1024 SPF) Compression mode : Lossy Stream size : 76.7 MiB (4%) Title : 日本語 [オリジナル] Language : Japanese Default : Yes Forced : No Audio #2 ID : 3 Format : AAC LC Format/Info : Advanced Audio Codec Low Complexity Codec ID : A_AAC-2 Duration : 55 min 49 s Bit rate : 192 kb/s Channel(s) : 2 channels Channel layout : L R Sampling rate : 48.0 kHz Frame rate : 46.875 FPS (1024 SPF) Compression mode : Lossy Stream size : 76.7 MiB (4%) Title : 日本語 [解説放送音声] Language : Japanese Default : No Forced : No ```

File list