[MagicStar] Soredemo Kekkon Shitai to, Yatsura ga Itta. EP03 [WEBDL] [1080p] [AMZN] :: Nyaa ISS

[MagicStar] Soredemo Kekkon Shitai to, Yatsura ga Itta. EP03 [WEBDL] [1080p] [AMZN]

Category:
Date:
2023-01-24 05:52 UTC
Submitter:
Seeders:
3
Information:
Leechers:
10
File size:
1.6 GiB
Completed:
287
Info hash:
58e006c4437ba8f95ec3fae225bd3a8e00190bfa
HD 1080p from Prime Video. Use CBR bitrate mode. ************** We are planning to upload all prime video japan Dramas and Movies, we need your Support! ************** Support Us Ali (Zhifubao / QR code): https://i.ibb.co/FWV2ggm/1660626347125.png PayPalMe: https://www.paypal.com/paypalme/sakuragikenji ************** ![alt text](https://i.ibb.co/tpSjCyC/96404529432.jpg) ![alt text](https://i.ibb.co/5n2RSB5/Soredemo-Kekkon-Shitai-to-Yatsura-ga-Itta-EP03-1080p-AMZN-WEB-DL-DDP2-0-H-264-Magic-Star-mkv.jpg) ``` General Unique ID : 113688790632586928007297582227290153806 (0x5587AA24ABA42B77AB55E5C6E6D5634E) Complete name : Soredemo.Kekkon.Shitai.to.Yatsura.ga.Itta.EP03.1080p.AMZN.WEB-DL.DDP2.0.H.264-MagicStar.mkv Format : Matroska Format version : Version 4 File size : 1.64 GiB Duration : 24 min 0 s Overall bit rate mode : Constant Overall bit rate : 9 766 kb/s Encoded date : UTC 2023-01-20 22:46:31 Writing application : mkvmerge v50.0.0 ('Awakenings') 64-bit Writing library : libebml v1.4.0 + libmatroska v1.6.2 Cover : Yes Attachments : cover.png Video ID : 1 Format : AVC Format/Info : Advanced Video Codec Format profile : [email protected] Format settings : CABAC / 4 Ref Frames Format settings, CABAC : Yes Format settings, Reference fra : 4 frames Codec ID : V_MPEG4/ISO/AVC Duration : 24 min 0 s Bit rate mode : Constant Bit rate : 10 000 kb/s Width : 1 920 pixels Height : 1 080 pixels Display aspect ratio : 16:9 Frame rate mode : Constant Frame rate : 29.970 (29970/1000) FPS Original frame rate : 29.970 (30000/1001) FPS Color space : YUV Chroma subsampling : 4:2:0 Bit depth : 8 bits Scan type : Progressive Bits/(Pixel*Frame) : 0.161 Stream size : 1.60 GiB (98%) Default : Yes Forced : No Color range : Limited Color primaries : BT.709 Transfer characteristics : BT.709 Matrix coefficients : BT.709 Audio ID : 2 Format : E-AC-3 Format/Info : Enhanced AC-3 Commercial name : Dolby Digital Plus Codec ID : A_EAC3 Duration : 24 min 0 s Bit rate mode : Constant Bit rate : 224 kb/s Channel(s) : 2 channels Channel layout : L R Sampling rate : 48.0 kHz Frame rate : 31.250 FPS (1536 SPF) Compression mode : Lossy Stream size : 38.5 MiB (2%) Language : Japanese Service kind : Complete Main Default : Yes Forced : No ```

File list

can you please rip https://www.amazon.co.jp/dp/B019B1UOJK Genji Monogatari Senneki anime 720p or 1080p? and https://www.amazon.co.jp/dp/B0B7667VY1 ?

MagicStar-subs (uploader)

User
@RyzakiT As your requested. https://nyaa.iss.one/view/1629098 https://nyaa.iss.one/view/1629103 https://nyaa.iss.one/view/1629104 https://nyaa.iss.one/view/1629108 https://nyaa.iss.one/view/1629109 Upload two sources, because Amazon’s source does not handle interlacing, so we decided to upload U-Next’s source separately. Also backed up the MEGA link. MEGA Link: https://mega.nz/#P!AgBfvFPEkEHd7xj6WpFggV92aSZJ2oRvt9Y9o5407uobR1GBk6EeArCGy5od21SChL67mP327ezrSEPuysSiP4yMYjWitsMTpXSILoG-a5lEtXL7TzSUXQ Password: nobunaga1950s And "Genji Monogatari Sennenki Genji" uploaded U-Next’s source. https://nyaa.iss.one/view/1629114 MEGA Link: https://mega.nz/#P!AgB7MiQILIIrSvCWK0Xa6j7jYTr0np2TYBCvXy4hMUCJOPNnRh9KlT9uMdBywutYvwRdwYNWXzhZfX2-IMQ99gbcqIWpB9deWrISiPtcWDGOmcFd1a_5OQ Password: genji2009 If you need Amazon’s source, just support us: Ali (Zhifubao / QR code): https://i.ibb.co/FWV2ggm/1660626347125.png PayPalMe: https://www.paypal.com/paypalme/sakuragikenji