[MagicStar] 100-man Kai Ieba Yokatta EP02 [WEBDL] [1080p] [Netflix] [JPN_SUB] :: Nyaa ISS

[MagicStar] 100-man Kai Ieba Yokatta EP02 [WEBDL] [1080p] [Netflix] [JPN_SUB]

Category:
Date:
2023-01-24 06:12 UTC
Submitter:
Seeders:
17
Information:
Leechers:
5
File size:
1.9 GiB
Completed:
652
Info hash:
adcdd77e196496da8dae6a87dfb14e3991833e3d
HD 1080p from Netflix. Japanese subtitles added. ![alt text](https://i.ibb.co/R0x6nsn/96411920787.jpg) ![alt text](https://i.ibb.co/GTHcMGG/100-man-Kai-Ieba-Yokatta-EP02-1080p-NF-WEB-DL-DDP2-0-H-264-Magic-Star-mkv.jpg) ``` General Unique ID : 220521271386704273519817224741896042610 (0xA5E6DA1C44027EE02757D131BEBBB872) Complete name : 100.man.Kai.Ieba.Yokatta.EP02.1080p.NF.WEB-DL.DDP2.0.H.264-MagicStar.mkv Format : Matroska Format version : Version 4 File size : 1.87 GiB Duration : 45 min 5 s Overall bit rate mode : Variable Overall bit rate : 5 922 kb/s Encoded date : UTC 2023-01-20 23:04:53 Writing application : mkvmerge v50.0.0 ('Awakenings') 64-bit Writing library : libebml v1.4.0 + libmatroska v1.6.2 Cover : Yes Attachments : cover.png Video ID : 1 Format : AVC Format/Info : Advanced Video Codec Format profile : [email protected] Format settings : CABAC / 3 Ref Frames Format settings, CABAC : Yes Format settings, Reference fra : 3 frames Codec ID : V_MPEG4/ISO/AVC Duration : 45 min 5 s Bit rate mode : Variable Bit rate : 5 800 kb/s Maximum bit rate : 8 700 kb/s Width : 1 920 pixels Height : 1 080 pixels Display aspect ratio : 16:9 Frame rate mode : Constant Frame rate : 29.970 (29970/1000) FPS Original frame rate : 29.970 (30000/1001) FPS Color space : YUV Chroma subsampling : 4:2:0 Bit depth : 8 bits Scan type : Progressive Bits/(Pixel*Frame) : 0.093 Stream size : 1.82 GiB (98%) Writing library : x264 core 148 r2727 7d026e8 Encoding settings : cabac=1 / ref=3 / deblock=1:0:0 / analyse=0x1:0x111 / me=umh / subme=10 / psy=1 / psy_rd=1.00:0.00 / mixed_ref=1 / me_range=24 / chroma_me=1 / trellis=2 / 8x8dct=0 / cqm=0 / deadzone=21,11 / fast_pskip=1 / chroma_qp_offset=-2 / threads=8 / lookahead_threads=1 / sliced_threads=0 / nr=0 / decimate=1 / interlaced=0 / bluray_compat=0 / stitchable=1 / constrained_intra=0 / bframes=2 / b_pyramid=0 / b_adapt=2 / b_bias=0 / direct=3 / weightb=1 / open_gop=0 / weightp=2 / keyint=250 / keyint_min=25 / scenecut=0 / intra_refresh=0 / rc_lookahead=60 / rc=2pass / mbtree=1 / bitrate=5800 / ratetol=1.0 / qcomp=0.50 / qpmin=6 / qpmax=51 / qpstep=4 / cplxblur=20.0 / qblur=0.5 / vbv_maxrate=8700 / vbv_bufsize=11600 / nal_hrd=vbr / filler=0 / ip_ratio=1.40 / aq=1:1.00 Default : Yes Forced : No Audio ID : 2 Format : E-AC-3 Format/Info : Enhanced AC-3 Commercial name : Dolby Digital Plus Codec ID : A_EAC3 Duration : 45 min 5 s Bit rate mode : Constant Bit rate : 128 kb/s Channel(s) : 2 channels Channel layout : L R Sampling rate : 48.0 kHz Frame rate : 31.250 FPS (1536 SPF) Compression mode : Lossy Stream size : 41.3 MiB (2%) Language : Japanese Service kind : Complete Main Default : Yes Forced : No ```

File list

Thanks for all new dramas !