[MagicStar] Kougan no Wakamusha Oda Nobunaga 1955 [WEBDL] [1080p] [AMZN] :: Nyaa ISS

[MagicStar] Kougan no Wakamusha Oda Nobunaga 1955 [WEBDL] [1080p] [AMZN]

Category:
Date:
2023-01-24 22:32 UTC
Submitter:
Seeders:
3
File size:
6.2 GiB
Completed:
59
Info hash:
220c6f1b4e0a42fdb5358931778c5d165acd13da
HD 1080p from Prime Video. Use CBR bitrate mode. As requested by user @RyzakiT. Upload two sources, because Amazon's source does not handle interlacing, so we decided to upload U-Next's source separately. Also backed up the MEGA link. If there are users who are interested in these movies, please also help us complete this torrent, thank you! MEGA Link: https://mega.nz/#P!AgBfvFPEkEHd7xj6WpFggV92aSZJ2oRvt9Y9o5407uobR1GBk6EeArCGy5od21SChL67mP327ezrSEPuysSiP4yMYjWitsMTpXSILoG-a5lEtXL7TzSUXQ Password: nobunaga1950s ************** Support Us Ali (Zhifubao / QR code): https://i.ibb.co/FWV2ggm/1660626347125.png PayPalMe: https://www.paypal.com/paypalme/sakuragikenji ************** ![alt text](https://i.ibb.co/mctLdp9/812slbtn-E5-L.jpg) ![alt text](https://i.ibb.co/qMZdmnC/Kurenaigao-no-Wakamusha-Oda-Nobunaga-1955-1080p-AMZN-WEB-DL-DDP2-0-H-264-Magic-Star-mkv.jpg) ``` General Unique ID : 207988506613303518484392380228918581247 (0x9C792119A3FDDA1AF7E7E669C96417FF) Complete name : Kurenaigao.no.Wakamusha.Oda.Nobunaga.1955.1080p.AMZN.WEB-DL.DDP2.0.H.264-MagicStar.mkv Format : Matroska Format version : Version 4 File size : 6.25 GiB Duration : 1 h 31 min Overall bit rate mode : Constant Overall bit rate : 9 753 kb/s Encoded date : UTC 2023-01-24 20:42:04 Writing application : mkvmerge v50.0.0 ('Awakenings') 64-bit Writing library : libebml v1.4.0 + libmatroska v1.6.2 Cover : Yes Attachments : cover.png Video ID : 1 Format : AVC Format/Info : Advanced Video Codec Format profile : [email protected] Format settings : CABAC / 4 Ref Frames Format settings, CABAC : Yes Format settings, Reference fra : 4 frames Codec ID : V_MPEG4/ISO/AVC Duration : 1 h 31 min Bit rate mode : Constant Bit rate : 10 000 kb/s Width : 1 440 pixels Height : 1 080 pixels Display aspect ratio : 4:3 Frame rate mode : Constant Frame rate : 29.970 (29970/1000) FPS Original frame rate : 29.970 (30000/1001) FPS Color space : YUV Chroma subsampling : 4:2:0 Bit depth : 8 bits Scan type : Progressive Bits/(Pixel*Frame) : 0.215 Stream size : 6.10 GiB (98%) Default : Yes Forced : No Color range : Limited Color primaries : BT.709 Transfer characteristics : BT.709 Matrix coefficients : BT.709 Audio ID : 2 Format : E-AC-3 Format/Info : Enhanced AC-3 Commercial name : Dolby Digital Plus Codec ID : A_EAC3 Duration : 1 h 31 min Bit rate mode : Constant Bit rate : 224 kb/s Channel(s) : 2 channels Channel layout : L R Sampling rate : 48.0 kHz Frame rate : 31.250 FPS (1536 SPF) Compression mode : Lossy Stream size : 147 MiB (2%) Title : 日本語 [オリジナル] Language : Japanese Service kind : Complete Main Default : Yes Forced : No ```

File list

Here is the Japanese Caption if anyone is interested in https://nyaa.iss.one/view/1629557 Thanks to YoriTomo @JPTVClub.