[MagicStar] Fuunji Oda Nobunaga 1959 [WEBDL] [1080p] [AMZN] :: Nyaa ISS

[MagicStar] Fuunji Oda Nobunaga 1959 [WEBDL] [1080p] [AMZN]

Category:
Date:
2023-01-24 22:38 UTC
Submitter:
Seeders:
3
Information:
Leechers:
6
File size:
8.4 GiB
Completed:
70
Info hash:
d36b9afa131238056dcb673685f1588feb5ff18f
HD 1080p from Prime Video. As requested by user @RyzakiT. Upload two sources, because Amazon's source does not handle interlacing, so we decided to upload U-Next's source separately. Also backed up the MEGA link. If there are users who are interested in these movies, please also help us complete this torrent, thank you! MEGA Link: https://mega.nz/#P!AgBfvFPEkEHd7xj6WpFggV92aSZJ2oRvt9Y9o5407uobR1GBk6EeArCGy5od21SChL67mP327ezrSEPuysSiP4yMYjWitsMTpXSILoG-a5lEtXL7TzSUXQ Password: nobunaga1950s ************** Support Us Ali (Zhifubao / QR code): https://i.ibb.co/FWV2ggm/1660626347125.png PayPalMe: https://www.paypal.com/paypalme/sakuragikenji ************** ![alt text](https://i.ibb.co/KbZKMgs/81-Yd7-M5-BVs-L.jpg) ![alt text](https://i.ibb.co/8zxSc5s/Fuunji-Oda-Nobunaga-1959-1080p-AMZN-WEB-DL-DDP2-0-H-264-Magic-Star-mkv.jpg) ``` General Unique ID : 266611967482069591202665142530037522832 (0xC89398E02BAA384E74305339612C2190) Complete name : Fuunji.Oda.Nobunaga.1959.1080p.AMZN.WEB-DL.DDP2.0.H.264-MagicStar.mkv Format : Matroska Format version : Version 4 File size : 8.40 GiB Duration : 1 h 35 min Overall bit rate : 12.6 Mb/s Encoded date : UTC 2023-01-24 21:19:59 Writing application : mkvmerge v50.0.0 ('Awakenings') 64-bit Writing library : libebml v1.4.0 + libmatroska v1.6.2 Cover : Yes Attachments : cover.png Video ID : 1 Format : AVC Format/Info : Advanced Video Codec Format profile : [email protected] Format settings : CABAC / 4 Ref Frames Format settings, CABAC : Yes Format settings, Reference fra : 4 frames Codec ID : V_MPEG4/ISO/AVC Duration : 1 h 35 min Bit rate : 12.4 Mb/s Width : 1 920 pixels Height : 816 pixels Display aspect ratio : 2.35:1 Frame rate mode : Constant Frame rate : 29.970 (29970/1000) FPS Original frame rate : 29.970 (30000/1001) FPS Color space : YUV Chroma subsampling : 4:2:0 Bit depth : 8 bits Scan type : Progressive Bits/(Pixel*Frame) : 0.264 Stream size : 8.25 GiB (98%) Default : Yes Forced : No Color range : Limited Color primaries : BT.709 Transfer characteristics : BT.709 Matrix coefficients : BT.709 Audio ID : 2 Format : E-AC-3 Format/Info : Enhanced AC-3 Commercial name : Dolby Digital Plus Codec ID : A_EAC3 Duration : 1 h 35 min Bit rate mode : Constant Bit rate : 224 kb/s Channel(s) : 2 channels Channel layout : L R Sampling rate : 48.0 kHz Frame rate : 31.250 FPS (1536 SPF) Compression mode : Lossy Stream size : 152 MiB (2%) Title : 日本語 [オリジナル] Language : Japanese Service kind : Complete Main Default : Yes Forced : No ```

File list