[MagicStar] Hoshi Furu Yoru ni EP02 [WEBDL] [1080p] [ABEMA-TV] [JPN_SUB] :: Nyaa ISS

[MagicStar] Hoshi Furu Yoru ni EP02 [WEBDL] [1080p] [ABEMA-TV] [JPN_SUB]

Category:
Date:
2023-01-25 02:47 UTC
Submitter:
Seeders:
20
File size:
1.4 GiB
Completed:
592
Info hash:
0f7afcdd54f3e073c5a06f50dda1a0e4e0d175af
HD 1080p from Abema TV. Japanese subtitles added. Audio description added. ![alt text](https://i.ibb.co/BB2cLbh/db492ff3-864a-4876-ae7d-28f9d07beda3.jpg) ![alt text](https://i.ibb.co/4RPQDxR/Hoshi-Furu-Yoru-ni-EP02-1080p-ABEMA-TV-WEB-DL-AAC2-0-H-264-Magic-Star-mkv.jpg) ``` General Unique ID : 30107523754473415106900373648382296525 (0x16A67F87163026AEBF3D3447D2BB01CD) Complete name : Hoshi.Furu.Yoru.ni.EP02.1080p.ABEMA-TV.WEB-DL.AAC2.0.H.264-MagicStar.mkv Format : Matroska Format version : Version 4 File size : 1.39 GiB Duration : 45 min 8 s Overall bit rate mode : Variable Overall bit rate : 4 395 kb/s Encoded date : UTC 2023-01-25 01:32:50 Writing application : mkvmerge v50.0.0 ('Awakenings') 64-bit Writing library : libebml v1.4.0 + libmatroska v1.6.2 Video ID : 1 Format : AVC Format/Info : Advanced Video Codec Format profile : [email protected] Format settings : CABAC / 4 Ref Frames Format settings, CABAC : Yes Format settings, Reference fra : 4 frames Codec ID : V_MPEG4/ISO/AVC Duration : 45 min 7 s Bit rate mode : Variable Bit rate : 4 006 kb/s Maximum bit rate : 40.0 Mb/s Width : 1 920 pixels Height : 1 080 pixels Display aspect ratio : 16:9 Frame rate mode : Constant Frame rate : 29.970 (29970/1000) FPS Original frame rate : 29.970 (30000/1001) FPS Color space : YUV Chroma subsampling : 4:2:0 Bit depth : 8 bits Scan type : Progressive Bits/(Pixel*Frame) : 0.064 Stream size : 1.26 GiB (91%) Default : Yes Forced : No Audio #1 ID : 2 Format : AAC LC Format/Info : Advanced Audio Codec Low Complexity Codec ID : A_AAC-2 Duration : 45 min 8 s Bit rate : 192 kb/s Channel(s) : 2 channels Channel layout : L R Sampling rate : 44.1 kHz Frame rate : 43.066 FPS (1024 SPF) Compression mode : Lossy Stream size : 62.1 MiB (4%) Title : 日本語 [オリジナル] Language : Japanese Default : Yes Forced : No Audio #2 ID : 3 Format : AAC LC Format/Info : Advanced Audio Codec Low Complexity Codec ID : A_AAC-2 Duration : 45 min 8 s Bit rate : 192 kb/s Channel(s) : 2 channels Channel layout : L R Sampling rate : 44.1 kHz Frame rate : 43.066 FPS (1024 SPF) Compression mode : Lossy Stream size : 62.3 MiB (4%) Title : 日本語 [解説放送音声] Language : Japanese Default : No Forced : No ```

File list