[MagicStar] Suki Suki Wan Wan! EP01 [WEBDL] [1080p] [HULU] [JPN_SUB] :: Nyaa ISS

[MagicStar] Suki Suki Wan Wan! EP01 [WEBDL] [1080p] [HULU] [JPN_SUB]

Category:
Date:
2023-01-25 02:54 UTC
Submitter:
Seeders:
6
Information:
Leechers:
2
File size:
683.9 MiB
Completed:
234
Info hash:
b2a8c14110e2e14e62ae60d5a87978140036a494
HD 1080p from HULU JAPAN. ![alt text](https://i.ibb.co/gDC4GKT/494742d0-2b43-4df3-b3b1-ad52652a92f7b.jpg) ![alt text](https://i.ibb.co/RTBysGb/Suki-Suki-Wan-Wan-EP01-1080p-HULU-WEB-DL-AAC2-0-H-264-Magic-Star-mkv.jpg) ``` General Unique ID : 51334827560569879810536221902075831018 (0x269EBA689EE83D9666BED630BCCBA2EA) Complete name : Suki.Suki.Wan.Wan.EP01.1080p.HULU.WEB-DL.AAC2.0.H.264-MagicStar.mkv Format : Matroska Format version : Version 4 File size : 684 MiB Duration : 23 min 28 s Overall bit rate : 4 075 kb/s Encoded date : UTC 2023-01-25 01:28:27 Writing application : mkvmerge v50.0.0 ('Awakenings') 64-bit Writing library : libebml v1.4.0 + libmatroska v1.6.2 Cover : Yes Attachments : cover.png Video ID : 1 Format : AVC Format/Info : Advanced Video Codec Format profile : [email protected] Format settings : CABAC / 4 Ref Frames Format settings, CABAC : Yes Format settings, Reference fra : 4 frames Codec ID : V_MPEG4/ISO/AVC Duration : 23 min 27 s Bit rate : 3 946 kb/s Width : 1 920 pixels Height : 1 080 pixels Display aspect ratio : 16:9 Frame rate mode : Constant Frame rate : 29.970 (29970/1000) FPS Original frame rate : 29.970 (30000/1001) FPS Color space : YUV Chroma subsampling : 4:2:0 Bit depth : 8 bits Scan type : Progressive Bits/(Pixel*Frame) : 0.063 Stream size : 662 MiB (97%) Default : Yes Forced : No Color range : Limited Color primaries : BT.709 Transfer characteristics : BT.709 Matrix coefficients : BT.709 Audio ID : 2 Format : AAC LC Format/Info : Advanced Audio Codec Low Complexity Codec ID : A_AAC-2 Duration : 23 min 28 s Bit rate : 125 kb/s Channel(s) : 2 channels Channel layout : L R Sampling rate : 48.0 kHz Frame rate : 46.875 FPS (1024 SPF) Compression mode : Lossy Stream size : 21.0 MiB (3%) Title : 日本語 [オリジナル] Language : Japanese Default : Yes Forced : No ```

File list