[MagicStar] Voltes V Legacy - Episode.89 Never Surrender [WEBDL] [1080p] :: Nyaa ISS

[MagicStar] Voltes V Legacy - Episode.89 Never Surrender [WEBDL] [1080p]

Category:
Date:
2023-09-13 04:23 UTC
Submitter:
Seeders:
3
File size:
1.2 GiB
Completed:
986
Info hash:
8f6ab9ab5db85d607b74413391f55d4a2355e2da
HD 1080p from GMA (Powered by Dailymotion). This source frame rate is not so good. Keep waiting for a better source. ![alt text](https://i.ibb.co/TT0QzNg/344557645-254715520563161-2584097544043331148-n.jpg) ![alt text](https://i.ibb.co/XkvKpr8/Magic-Star-Voltes-V-Legacy-Episode-89-Never-Surrender-WEBDL-1080p-mkv.jpg) ``` General Unique ID : 297579134873747455906426882558789245722 (0xDFDFA81B61DA75DA205D4CCD76B95B1A) Complete name : [MagicStar] Voltes V Legacy - Episode.89 Never Surrender [WEBDL] [1080p].mkv Format : Matroska Format version : Version 4 File size : 1.15 GiB Duration : 25 min 38 s Overall bit rate : 6 423 kb/s Frame rate : 23.976 FPS Encoded date : 2023-09-08 15:37:22 UTC Writing application : mkvmerge v50.0.0 ('Awakenings') 64-bit Writing library : libebml v1.4.0 + libmatroska v1.6.2 Video ID : 1 Format : AVC Format/Info : Advanced Video Codec Format profile : High@L4 Format settings : CABAC / 3 Ref Frames Format settings, CABAC : Yes Format settings, Reference fra : 3 frames Codec ID : V_MPEG4/ISO/AVC Duration : 25 min 38 s Bit rate : 6 261 kb/s Width : 1 920 pixels Height : 1 016 pixels Display aspect ratio : 1.890 Frame rate mode : Constant Frame rate : 23.976 (24000/1001) FPS Original frame rate : 23.976 (23976/1000) FPS Color space : YUV Chroma subsampling : 4:2:0 Bit depth : 8 bits Scan type : Progressive Bits/(Pixel*Frame) : 0.134 Stream size : 1.12 GiB (97%) Default : Yes Forced : No Audio ID : 2 Format : AAC LC Format/Info : Advanced Audio Codec Low Complexity Codec ID : A_AAC-2 Duration : 25 min 38 s Bit rate : 160 kb/s Channel(s) : 2 channels Channel layout : L R Sampling rate : 44.1 kHz Frame rate : 43.066 FPS (1024 SPF) Compression mode : Lossy Stream size : 29.3 MiB (2%) Language : fil Default : Yes Forced : No ```

File list

  • [MagicStar] Voltes V Legacy - Episode.89 Never Surrender [WEBDL] [1080p].mkv (1.2 GiB)