[MagicStar] Ningen Kowai Season2 EP05 [HDTV] [1080p] [WOWOW] [JPN_SUB] :: Nyaa ISS

[MagicStar] Ningen Kowai Season2 EP05 [HDTV] [1080p] [WOWOW] [JPN_SUB]

Category:
Date:
2023-09-13 04:25 UTC
Submitter:
Seeders:
1
File size:
837.1 MiB
Completed:
914
Info hash:
744dce520828748d62228f0ab1c5fd37f1185ffe
HD 1080p from WOWOW Prime. WOWOW Original Series. Japanese subtitles added. ![alt text](https://i.ibb.co/MGXH5qB/d5098a13-e457-43c3-90d5-9004584ffdaa.jpg) ![alt text](https://i.ibb.co/0Z8kQb8/Ningen-Kowai-S02-EP05-1080p-WOWOW-HDTV-H264-AAC-Magic-Star-mkv.jpg) ``` General Unique ID : 219882701893262475647551016588800718201 (0xA56BDE34209BA1F5B1CA0E18776C7579) Complete name : Ningen.Kowai.S02EP05.1080p.WOWOW.HDTV.H264.AAC-MagicStar.mkv Format : Matroska Format version : Version 2 File size : 837 MiB Duration : 25 min 5 s Overall bit rate : 4 665 kb/s Frame rate : 29.970 FPS Encoded date : 2023-09-11 03:45:53 UTC Writing application : mkvmerge v8.5.2 ('Crosses') 32bit Writing library : libebml v1.3.3 + libmatroska v1.4.4 Video ID : 1 Format : AVC Format/Info : Advanced Video Codec Format profile : [email protected] Format settings : CABAC / 4 Ref Frames Format settings, CABAC : Yes Format settings, Reference fra : 4 frames Codec ID : V_MPEG4/ISO/AVC Duration : 25 min 5 s Bit rate : 4 474 kb/s Width : 1 920 pixels Height : 1 080 pixels Display aspect ratio : 16:9 Frame rate mode : Constant Frame rate : 29.970 (30000/1001) FPS Color space : YUV Chroma subsampling : 4:2:0 Bit depth : 8 bits Scan type : Progressive Bits/(Pixel*Frame) : 0.072 Stream size : 803 MiB (96%) Writing library : x264 core 148 r2638 7599210 Encoding settings : cabac=1 / ref=3 / deblock=1:0:0 / analyse=0x3:0x113 / me=umh / subme=8 / psy=1 / psy_rd=1.00:0.00 / mixed_ref=0 / me_range=16 / chroma_me=1 / trellis=2 / 8x8dct=1 / cqm=0 / deadzone=21,11 / fast_pskip=1 / chroma_qp_offset=-2 / threads=24 / lookahead_threads=4 / sliced_threads=0 / nr=0 / decimate=1 / interlaced=0 / bluray_compat=0 / constrained_intra=0 / bframes=3 / b_pyramid=2 / b_adapt=2 / b_bias=0 / direct=3 / weightb=1 / open_gop=0 / weightp=2 / keyint=300 / keyint_min=29 / scenecut=40 / intra_refresh=0 / rc_lookahead=40 / rc=crf / mbtree=1 / crf=21.0 / qcomp=0.60 / qpmin=0 / qpmax=69 / qpstep=4 / ip_ratio=1.40 / aq=1:1.00 Default : Yes Forced : No Audio ID : 2 Format : AAC LC Format/Info : Advanced Audio Codec Low Complexity Codec ID : A_AAC-2 Duration : 25 min 4 s Bit rate : 192 kb/s Channel(s) : 2 channels Channel layout : L R Sampling rate : 48.0 kHz Frame rate : 46.875 FPS (1024 SPF) Compression mode : Lossy Delay relative to video : 1 ms Stream size : 33.8 MiB (4%) Language : Japanese Default : Yes Forced : No ```

File list