[MagicStar] Saikou no Kyoushi Ichinengo, Watashi wa Seito ni ■Sareta EP08 [WEBDL] [1080p] [HULU] [JPN_SUB] :: Nyaa ISS

[MagicStar] Saikou no Kyoushi Ichinengo, Watashi wa Seito ni ■Sareta EP08 [WEBDL] [1080p] [HULU] [JPN_SUB]

Category:
Date:
2023-09-13 04:58 UTC
Submitter:
Seeders:
4
Information:
Leechers:
0
File size:
962.8 MiB
Completed:
1993
Info hash:
ff69759c055985885a86e970c4cdd3a313b59e68
HD from HULU JAPAN. ![alt text](https://i.ibb.co/PFRQ746/7e2905c5-5859-4ab5-91e9-3dcf7e5a06f7b.jpg) ![alt text](https://i.ibb.co/2MdrBPw/Saikou-no-Kyoushi-Ichinengo-Watashi-wa-Seito-ni-Sareta-EP08-1080p-HULU-WEB-DL-AAC2-0-H-264-Magic-Sta.jpg) ``` General Unique ID : 284521653917872136592501333512139847954 (0xD60CE0976F22053901AEE7F45D583912) Complete name : Saikou.no.Kyoushi.Ichinengo.Watashi.wa.Seito.ni.■Sareta.EP08.1080p.HULU.WEB-DL.AAC2.0.H.264-MagicStar.mkv Format : Matroska Format version : Version 4 File size : 963 MiB Duration : 45 min 44 s Overall bit rate : 2 943 kb/s Frame rate : 29.970 FPS Encoded date : 2023-09-12 11:34:14 UTC Writing application : mkvmerge v50.0.0 ('Awakenings') 64-bit Writing library : libebml v1.4.0 + libmatroska v1.6.2 Cover : Yes Attachments : cover.png Video ID : 1 Format : AVC Format/Info : Advanced Video Codec Format profile : High@L4 Format settings : CABAC / 4 Ref Frames Format settings, CABAC : Yes Format settings, Reference fra : 4 frames Codec ID : V_MPEG4/ISO/AVC Duration : 45 min 44 s Bit rate : 2 687 kb/s Width : 1 920 pixels Height : 1 080 pixels Display aspect ratio : 16:9 Frame rate mode : Constant Frame rate : 29.970 (29970/1000) FPS Original frame rate : 29.970 (30000/1001) FPS Color space : YUV Chroma subsampling : 4:2:0 Bit depth : 8 bits Scan type : Progressive Bits/(Pixel*Frame) : 0.043 Stream size : 879 MiB (91%) Default : Yes Forced : No Color range : Limited Color primaries : BT.709 Transfer characteristics : BT.709 Matrix coefficients : BT.709 Audio ID : 2 Format : AAC LC Format/Info : Advanced Audio Codec Low Complexity Codec ID : A_AAC-2 Duration : 45 min 44 s Bit rate : 253 kb/s Channel(s) : 2 channels Channel layout : L R Sampling rate : 48.0 kHz Frame rate : 46.875 FPS (1024 SPF) Compression mode : Lossy Stream size : 82.9 MiB (9%) Title : 日本語 [オリジナル] Language : Japanese Default : Yes Forced : No ```

File list