[MagicStar] Voltes V Legacy - Episode.90 One Epic Finale END [WEBDL] [1080p] :: Nyaa ISS

[MagicStar] Voltes V Legacy - Episode.90 One Epic Finale END [WEBDL] [1080p]

Category:
Date:
2023-09-13 05:00 UTC
Submitter:
Seeders:
3
File size:
1.2 GiB
Completed:
1085
Info hash:
31500796b8ffdfa07dbae28a8127d94ae74338e8
HD 1080p from GMA (Powered by Dailymotion). ![alt text](https://i.ibb.co/TT0QzNg/344557645-254715520563161-2584097544043331148-n.jpg) ![alt text](https://i.ibb.co/tcx8bLG/Magic-Star-Voltes-V-Legacy-Episode-90-One-Epic-Finale-WEBDL-1080p-mkv.jpg) ``` General Unique ID : 185656963949960632707577124383091259120 (0x8BAC3B0A463FD008E7E5FF79018AF6F0) Complete name : [MagicStar] Voltes V Legacy - Episode.90 One Epic Finale [WEBDL] [1080p].mkv Format : Matroska Format version : Version 4 File size : 1.23 GiB Duration : 27 min 21 s Overall bit rate : 6 415 kb/s Frame rate : 23.976 FPS Encoded date : 2023-09-10 10:48:29 UTC Writing application : mkvmerge v50.0.0 ('Awakenings') 64-bit Writing library : libebml v1.4.0 + libmatroska v1.6.2 Video ID : 1 Format : AVC Format/Info : Advanced Video Codec Format profile : High@L4 Format settings : CABAC / 3 Ref Frames Format settings, CABAC : Yes Format settings, Reference fra : 3 frames Codec ID : V_MPEG4/ISO/AVC Duration : 27 min 21 s Bit rate : 6 253 kb/s Width : 1 920 pixels Height : 1 016 pixels Display aspect ratio : 1.890 Frame rate mode : Constant Frame rate : 23.976 (24000/1001) FPS Original frame rate : 23.976 (23976/1000) FPS Color space : YUV Chroma subsampling : 4:2:0 Bit depth : 8 bits Scan type : Progressive Bits/(Pixel*Frame) : 0.134 Stream size : 1.19 GiB (97%) Default : Yes Forced : No Audio ID : 2 Format : AAC LC Format/Info : Advanced Audio Codec Low Complexity Codec ID : A_AAC-2 Duration : 27 min 21 s Bit rate : 160 kb/s Channel(s) : 2 channels Channel layout : L R Sampling rate : 44.1 kHz Frame rate : 43.066 FPS (1024 SPF) Compression mode : Lossy Stream size : 31.3 MiB (2%) Language : fil Default : Yes Forced : No ```

File list

  • [MagicStar] Voltes V Legacy - Episode.90 One Epic Finale [WEBDL] [1080p].mkv (1.2 GiB)
so, will there be a batch version and to include English subs?

MagicStar-subs (uploader)

User
@kaiserstar1 You can download English subtitles from here: https://www.mediafire.com/folder/w6hhk22pr8i8x/V5LEGACY_ENGLISH_SUBS Spanish Subtitles Now Available: https://www.opensubtitles.org/es/ssearch/sublanguageid-spa,spl/idmovie-1238386 Adenosubs V5 Legacy fansubs: https://adenosubs.godaddysites.com/english-subtitles/f/voltes-v-legacy-eng Subtitles provided by NegiKitsu.
Salamat po sa pagsuporta sa voltes v filipino adaptation, mistake thanks for the link on english subtitle for outside phl.
@kaiserstar1 I'm currently doing a batch torrent for all episodes with english subtitles