[MagicStar] Gifted Season1 EP06 [WEBDL] [1080p] [FOD] [JPN_SUB] :: Nyaa ISS

[MagicStar] Gifted Season1 EP06 [WEBDL] [1080p] [FOD] [JPN_SUB]

Category:
Date:
2023-09-17 11:28 UTC
Submitter:
Seeders:
2
Information:
Leechers:
0
File size:
695.7 MiB
Completed:
1212
Info hash:
1c40120c3019cc124880001b5b84be444ffdbfc3
HD 1080p from FOD. Japanese subtitles added. ![alt text](https://i.ibb.co/svD4Skv/content-877-F3-B42-5-CFC-4-A8-D-B44-F-DA43-DAE21-F1-C.jpg) ![alt text](https://i.ibb.co/YRfSsqw/Gifted-S01-EP06-1080p-FOD-WEB-DL-AAC2-0-H-264-Magic-Star-mkv.jpg) ``` General Unique ID : 105947794038735241055386169141704725687 (0x4FB4CD8B629307D537231E0D8CA314B7) Complete name : Gifted.S01EP06.1080p.FOD.WEB-DL.AAC2.0.H.264-MagicStar.mkv Format : Matroska Format version : Version 4 File size : 696 MiB Duration : 44 min 5 s Overall bit rate mode : Variable Overall bit rate : 2 206 kb/s Frame rate : 29.970 FPS Encoded date : 2023-09-17 10:57:29 UTC Writing application : mkvmerge v50.0.0 ('Awakenings') 64-bit Writing library : libebml v1.4.0 + libmatroska v1.6.2 Video ID : 1 Format : AVC Format/Info : Advanced Video Codec Format profile : [email protected] Format settings : CABAC / 2 Ref Frames Format settings, CABAC : Yes Format settings, Reference fra : 2 frames Codec ID : V_MPEG4/ISO/AVC Duration : 44 min 5 s Bit rate mode : Variable Bit rate : 2 012 kb/s Maximum bit rate : 15.0 Mb/s Width : 1 920 pixels Height : 1 080 pixels Display aspect ratio : 16:9 Frame rate mode : Constant Frame rate : 29.970 (29970/1000) FPS Original frame rate : 29.970 (30000/1001) FPS Color space : YUV Chroma subsampling : 4:2:0 Bit depth : 8 bits Scan type : Progressive Bits/(Pixel*Frame) : 0.032 Stream size : 634 MiB (91%) Default : Yes Forced : No Color range : Limited Color primaries : BT.709 Transfer characteristics : BT.709 Matrix coefficients : BT.709 Audio ID : 2 Format : AAC LC Format/Info : Advanced Audio Codec Low Complexity Codec ID : A_AAC-2 Duration : 44 min 5 s Bit rate : 192 kb/s Channel(s) : 2 channels Channel layout : L R Sampling rate : 48.0 kHz Frame rate : 46.875 FPS (1024 SPF) Compression mode : Lossy Stream size : 60.5 MiB (9%) Title : 日本語 [オリジナル] Language : Japanese Default : Yes Forced : No ```

File list

Thank you so much for all new dramas' episodes ! ^^