[MagicStar] VIVANT EP10 END [WEBDL] [1080p] [JPN_SUB] :: Nyaa ISS

[MagicStar] VIVANT EP10 END [WEBDL] [1080p] [JPN_SUB]

Category:
Date:
2023-09-17 13:23 UTC
Submitter:
Seeders:
12
Information:
Leechers:
9
File size:
1.7 GiB
Completed:
8304
Info hash:
7b472973321027a246559b4b5fa4905a7946bac6
HD 1080p from TVer. Japanese subtitles added. ![alt text](https://i.ibb.co/WBVDZqw/Fp5kkj-Ia-EAEsb-Z8.jpg) ![alt text](https://i.ibb.co/2KxZpn6/Magic-Star-VIVANT-EP10-END-WEBDL-1080p-mkv.jpg) ``` General Unique ID : 220003350524213226253253499871301768139 (0xA5831AA3F06128A18B999C887FA093CB) Complete name : [MagicStar] VIVANT EP10 END [WEBDL] [1080p].mkv Format : Matroska Format version : Version 4 File size : 1.75 GiB Duration : 1 h 8 min Overall bit rate : 3 657 kb/s Frame rate : 29.970 FPS Encoded date : 2023-09-17 13:21:40 UTC Writing application : mkvmerge v50.0.0 ('Awakenings') 64-bit Writing library : libebml v1.4.0 + libmatroska v1.6.2 Video ID : 1 Format : AVC Format/Info : Advanced Video Codec Format profile : High@L4 Format settings : CABAC / 4 Ref Frames Format settings, CABAC : Yes Format settings, Reference fra : 4 frames Codec ID : V_MPEG4/ISO/AVC Duration : 1 h 8 min Bit rate : 3 462 kb/s Width : 1 920 pixels Height : 1 080 pixels Display aspect ratio : 16:9 Frame rate mode : Constant Frame rate : 29.970 (29970/1000) FPS Original frame rate : 29.970 (30000/1001) FPS Color space : YUV Chroma subsampling : 4:2:0 Bit depth : 8 bits Scan type : Progressive Bits/(Pixel*Frame) : 0.056 Stream size : 1.65 GiB (95%) Default : Yes Forced : No Color range : Limited Color primaries : BT.709 Transfer characteristics : BT.709 Matrix coefficients : BT.709 Audio ID : 2 Format : AAC LC Format/Info : Advanced Audio Codec Low Complexity Codec ID : A_AAC-2 Duration : 1 h 8 min Bit rate : 192 kb/s Channel(s) : 2 channels Channel layout : L R Sampling rate : 48.0 kHz Frame rate : 46.875 FPS (1024 SPF) Compression mode : Lossy Stream size : 93.8 MiB (5%) Title : 日本語 [オリジナル] Language : Japanese Default : Yes Forced : No ```

File list

Hello. Can you please upload "5つの歌" from Amazon Prime? Thanks a lot in advance. https://www.amazon.co.jp/%EF%BC%95%E3%81%A4%E3%81%AE%E6%AD%8C%E8%A9%A9%EF%BC%88%E3%81%86%E3%81%9F%EF%BC%89/dp/B0B1QWDT2T