[MagicStar] GTO REVIVAL 2024 [WEBDL] [1080p] [FOD] [JPN_SUB] :: Nyaa ISS

[MagicStar] GTO REVIVAL 2024 [WEBDL] [1080p] [FOD] [JPN_SUB]

Category:
Date:
2024-04-01 15:52 UTC
Submitter:
Seeders:
59
Information:
Leechers:
0
File size:
3.7 GiB
Completed:
3684
Info hash:
101b692adc1c87f26601d55a9671cdb4b7cd7b05
HD 1080p from FOD. Japanese subtitles added. ************** Support Us Ali (Zhifubao / QR code): https://i.ibb.co/FWV2ggm/1660626347125.png PayPalMe: https://www.paypal.com/paypalme/sakuragikenji ETH (ERC20): 0xea3286E176099E8C9aBaf25A0edf231374C04E89 USDT (BTC / OMNI): 1Lemw6fu5vG3NdvWGxDxsPX7T7yUb3rNzu ************** ![alt text](https://i.ibb.co/1JHYmdz/00ix-b.jpg) ![alt text](https://i.ibb.co/VWWL59Q/GTO-REVIVAL-2024-1080p-FOD-WEB-DL-AAC2-0-H-264-Magic-Star-mkv.jpg) ``` General Unique ID : 162421554680254067048442843852311289299 (0x7A3140EA7083A36311F43AAA509ADDD3) Complete name : GTO.REVIVAL.2024.1080p.FOD.WEB-DL.AAC2.0.H.264-MagicStar.mkv Format : Matroska Format version : Version 4 File size : 3.67 GiB Duration : 1 h 31 min Overall bit rate mode : Variable Overall bit rate : 5 751 kb/s Frame rate : 29.970 FPS Encoded date : 2024-04-01 15:43:02 UTC Writing application : mkvmerge v50.0.0 ('Awakenings') 64-bit Writing library : libebml v1.4.0 + libmatroska v1.6.2 Video ID : 1 Format : AVC Format/Info : Advanced Video Codec Format profile : [email protected] Format settings : CABAC / 2 Ref Frames Format settings, CABAC : Yes Format settings, Reference fra : 2 frames Codec ID : V_MPEG4/ISO/AVC Duration : 1 h 31 min Bit rate mode : Variable Bit rate : 5 557 kb/s Maximum bit rate : 15.0 Mb/s Width : 1 920 pixels Height : 1 080 pixels Display aspect ratio : 16:9 Frame rate mode : Constant Frame rate : 29.970 (29970/1000) FPS Original frame rate : 29.970 (30000/1001) FPS Color space : YUV Chroma subsampling : 4:2:0 Bit depth : 8 bits Scan type : Progressive Bits/(Pixel*Frame) : 0.089 Stream size : 3.54 GiB (97%) Default : Yes Forced : No Color range : Limited Color primaries : BT.709 Transfer characteristics : BT.709 Matrix coefficients : BT.709 Audio ID : 2 Format : AAC LC Format/Info : Advanced Audio Codec Low Complexity Codec ID : A_AAC-2 Duration : 1 h 31 min Bit rate : 192 kb/s Channel(s) : 2 channels Channel layout : L R Sampling rate : 48.0 kHz Frame rate : 46.875 FPS (1024 SPF) Compression mode : Lossy Stream size : 125 MiB (3%) Title : 日本語 [オリジナル] Language : Japanese Default : Yes Forced : No ```

File list

Now we need to wait for english subtitles
Skeweds currently translating this
I saying "I finally added all the manga, anime and Live Action adaptations of this series to my collection." and there's a new one coming out.
a la espera de los subs en español :)