[MagicStar] [Club Catteria] Rag and Raga Part.1 [WEBDL] [1080p] [HULU] :: Nyaa ISS

[MagicStar] [Club Catteria] Rag and Raga Part.1 [WEBDL] [1080p] [HULU]

Category:
Date:
2024-04-03 03:03 UTC
Submitter:
Seeders:
8
Information:
Leechers:
0
File size:
805.4 MiB
Completed:
334
Info hash:
23e79c43abe00c03baed91e387de362cf8817ffc
HD 1080p from HULU JAPAN. ************** Support Us Ali (Zhifubao / QR code): https://i.ibb.co/FWV2ggm/1660626347125.png PayPalMe: https://www.paypal.com/paypalme/sakuragikenji ETH (ERC20): 0xea3286E176099E8C9aBaf25A0edf231374C04E89 USDT (BTC / OMNI): 1Lemw6fu5vG3NdvWGxDxsPX7T7yUb3rNzu ************** ![alt text](https://i.ibb.co/YBGp9PJ/34737ecc-f512-4519-9bba-5b204f95026fb.jpg) ![alt text](https://i.ibb.co/7NpfHq3/Club-Catteria-Rag-and-Raga-Part-1-1080p-HULU-WEB-DL-AAC2-0-H-264-Magic-Star-mkv.jpg) ``` General Unique ID : 175366981743316460718468194728659517089 (0x83EE73BF6C2C218C75C2C506DD6DFEA1) Complete name : Club.Catteria.Rag.and.Raga.Part.1.1080p.HULU.WEB-DL.AAC2.0.H.264-MagicStar.mkv Format : Matroska Format version : Version 4 File size : 805 MiB Duration : 22 min 47 s Overall bit rate : 4 942 kb/s Frame rate : 29.970 FPS Encoded date : 2024-04-03 02:47:26 UTC Writing application : mkvmerge v50.0.0 ('Awakenings') 64-bit Writing library : libebml v1.4.0 + libmatroska v1.6.2 Cover : Yes Attachments : cover.png Video ID : 1 Format : AVC Format/Info : Advanced Video Codec Format profile : High@L4 Format settings : CABAC / 4 Ref Frames Format settings, CABAC : Yes Format settings, Reference fra : 4 frames Codec ID : V_MPEG4/ISO/AVC Duration : 22 min 47 s Bit rate : 4 686 kb/s Width : 1 920 pixels Height : 1 080 pixels Display aspect ratio : 16:9 Frame rate mode : Constant Frame rate : 29.970 (29970/1000) FPS Original frame rate : 29.970 (30000/1001) FPS Color space : YUV Chroma subsampling : 4:2:0 Bit depth : 8 bits Scan type : Progressive Bits/(Pixel*Frame) : 0.075 Stream size : 764 MiB (95%) Default : Yes Forced : No Color range : Limited Color primaries : BT.709 Transfer characteristics : BT.709 Matrix coefficients : BT.709 Audio ID : 2 Format : AAC LC Format/Info : Advanced Audio Codec Low Complexity Codec ID : A_AAC-2 Duration : 22 min 47 s Bit rate : 253 kb/s Channel(s) : 2 channels Channel layout : L R Sampling rate : 48.0 kHz Frame rate : 46.875 FPS (1024 SPF) Compression mode : Lossy Stream size : 41.3 MiB (5%) Title : 日本語 [オリジナル] Language : Japanese Default : Yes Forced : No ```

File list