[MagicStar] Onsha no Midare Tadashimasu ~ Onsha no Furin no Ken ~ EP01 [WEBDL] [1080p] [AMZN] [JPN_SUB] :: Nyaa ISS

[MagicStar] Onsha no Midare Tadashimasu ~ Onsha no Furin no Ken ~ EP01 [WEBDL] [1080p] [AMZN] [JPN_SUB]

Category:
Date:
2024-04-03 03:55 UTC
Submitter:
Seeders:
9
Information:
Leechers:
0
File size:
1.5 GiB
Completed:
731
Info hash:
c4dbc07ba3d7a13733f68950cd5b99bb44e42b8a
HD 1080p from Prime Video. Use CBR bitrate mode. Japanese subtitles added. ************** We are planning to upload all Prime Video Japan Dramas and Movies, we need your Support! ************** Support Us Ali (Zhifubao / QR code): https://i.ibb.co/FWV2ggm/1660626347125.png PayPalMe: https://www.paypal.com/paypalme/sakuragikenji ETH (ERC20): 0xea3286E176099E8C9aBaf25A0edf231374C04E89 USDT (BTC / OMNI): 1Lemw6fu5vG3NdvWGxDxsPX7T7yUb3rNzu ************** ![alt text](https://i.ibb.co/173pnP5/896b1d20212d3b9b98ccc86dd1233e9be381a892ce31f853195142412fdc4808.jpg) ![alt text](https://i.ibb.co/hmHMq9V/Onsha-no-Midare-Tadashimasu-Onsha-no-Furin-no-Ken-EP01-1080p-AMZN-WEB-DL-DDP2-0-H-264-Magic-Star-mkv.jpg) ``` General Unique ID : 272334910356683911582112950820710704867 (0xCCE1CBBE841FADB466149928BD44E6E3) Complete name : Onsha.no.Midare.Tadashimasu.Onsha.no.Furin.no.Ken.EP01.1080p.AMZN.WEB-DL.DDP2.0.H.264-MagicStar.mkv Format : Matroska Format version : Version 4 File size : 1.51 GiB Duration : 24 min 27 s Overall bit rate mode : Constant Overall bit rate : 8 846 kb/s Frame rate : 29.970 FPS Encoded date : 2024-04-03 03:42:06 UTC Writing application : mkvmerge v50.0.0 ('Awakenings') 64-bit Writing library : libebml v1.4.0 + libmatroska v1.6.2 Cover : Yes Attachments : cover.jpg Video ID : 1 Format : AVC Format/Info : Advanced Video Codec Format profile : High@L4 Format settings : CABAC / 4 Ref Frames Format settings, CABAC : Yes Format settings, Reference fra : 4 frames Codec ID : V_MPEG4/ISO/AVC Duration : 24 min 27 s Bit rate mode : Constant Bit rate : 8 609 kb/s Nominal bit rate : 10 000 kb/s Width : 1 920 pixels Height : 1 080 pixels Display aspect ratio : 16:9 Frame rate mode : Constant Frame rate : 29.970 (29970/1000) FPS Original frame rate : 29.970 (30000/1001) FPS Color space : YUV Chroma subsampling : 4:2:0 Bit depth : 8 bits Scan type : Progressive Bits/(Pixel*Frame) : 0.139 Stream size : 1.47 GiB (97%) Default : Yes Forced : No Color range : Limited Color primaries : BT.709 Transfer characteristics : BT.709 Matrix coefficients : BT.709 Audio ID : 2 Format : E-AC-3 Format/Info : Enhanced AC-3 Commercial name : Dolby Digital Plus Codec ID : A_EAC3 Duration : 24 min 27 s Bit rate mode : Constant Bit rate : 224 kb/s Channel(s) : 2 channels Channel layout : L R Sampling rate : 48.0 kHz Frame rate : 31.250 FPS (1536 SPF) Compression mode : Lossy Stream size : 39.2 MiB (3%) Title : 日本語 [オリジナル] Language : Japanese Service kind : Complete Main Default : Yes Forced : No ```

File list