Charlotte (2015) Japanese, German/Deutsch [1080p|BDrip|X265|10bit|DTS] :: Nyaa ISS

Charlotte (2015) Japanese, German/Deutsch [1080p|BDrip|X265|10bit|DTS]

Category:
Date:
2024-04-03 17:36 UTC
Submitter:
Anonymous
Seeders:
4
Information:
No information.
Leechers:
0
File size:
11.1 GiB
Completed:
38
Info hash:
6d1e032fef0d806400866e1a10e8a3b24f731bf2
Nyaa release for the german version of Charlotte pulled from [this](https://nyaa.iss.one/view/1402057) torrent pack MediaInfo: ``` General Unique ID : 180452209559018634734402710330195558578 (0x87C1D4D61C1859ABBE3428E6D5A7C0B2) Complete name : P:\a\Charlotte.German.2015.DL.DTS.Anime.Bluray.10Bit.1080P.X265-Flower\charlotte.01.ich.stelle.mir.vor.ein.anderer.zu.sein.1080p.x265.mkv Format : Matroska Format version : Version 4 File size : 846 MiB Duration : 25 min 56 s Overall bit rate : 4 561 kb/s Frame rate : 23.976 FPS Movie name : CHARLOTTE #01: ICH STELLE MIR VOR, EIN ANDERER ZU SEIN 1080P 10BIT X265 Flower Encoded date : 2016-11-27 05:22:02 UTC Writing application : mkvmerge v9.5.0 ('Quiet Fire') 64bit Writing library : libebml v1.3.4 + libmatroska v1.4.5 Video ID : 1 Format : HEVC Format/Info : High Efficiency Video Coding Format profile : Main [email protected]@Main Codec ID : V_MPEGH/ISO/HEVC Duration : 25 min 56 s Bit rate : 1 496 kb/s Width : 1 920 pixels Height : 1 080 pixels Display aspect ratio : 16:9 Frame rate mode : Constant Frame rate : 23.976 (24000/1001) FPS Color space : YUV Chroma subsampling : 4:2:0 Bit depth : 10 bits Bits/(Pixel*Frame) : 0.030 Stream size : 278 MiB (33%) Title : CHARLOTTE #01: ICH STELLE MIR VOR, EIN ANDERER ZU SEIN 1080P 10BIT X265 Flower Writing library : x265 1.9+200-6098ba3e0cf16b11:[Windows][GCC 5.3.0][64 bit] 10bit Encoding settings : wpp / ctu=64 / min-cu-size=8 / max-tu-size=32 / tu-intra-depth=1 / tu-inter-depth=1 / me=1 / subme=4 / merange=57 / no-rect / no-amp / max-merge=2 / temporal-mvp / no-early-skip / recursion-skip / rdpenalty=1 / no-tskip / no-tskip-fast / strong-intra-smoothing / no-lossless / no-cu-lossless / no-constrained-intra / no-fast-intra / open-gop / no-temporal-layers / interlace=0 / keyint=250 / min-keyint=23 / scenecut=40 / rc-lookahead=20 / lookahead-slices=6 / bframes=4 / bframe-bias=0 / b-adapt=2 / ref=4 / limit-refs=3 / no-limit-modes / weightp / no-weightb / aq-mode=3 / qg-size=32 / aq-strength=1.00 / cbqpoffs=0 / crqpoffs=0 / rd=3 / psy-rd=2.00 / rdoq-level=0 / psy-rdoq=0.00 / no-rd-refine / signhide / deblock=1:1 / sao / no-sao-non-deblock / b-pyramid / cutree / no-intra-refresh / rc=crf / crf=20.0 / qcomp=0.60 / qpmin=0 / qpmax=51 / qpstep=4 / vbv-maxrate=20000 / vbv-bufsize=2000 / crf-max=0.0 / ipratio=1.40 / pbratio=1.30 Language : German Default : Yes Forced : No Color range : Limited Color primaries : BT.709 Transfer characteristics : BT.709 Matrix coefficients : BT.709 Audio #1 ID : 2 Format : DTS Format/Info : Digital Theater Systems Codec ID : A_DTS Duration : 25 min 56 s Bit rate mode : Constant Bit rate : 1 509 kb/s Channel(s) : 2 channels Channel layout : L R Sampling rate : 48.0 kHz Frame rate : 93.750 FPS (512 SPF) Bit depth : 24 bits Compression mode : Lossy Stream size : 280 MiB (33%) Title : GER DTS 1509 Kbps 2.0 Language : German Default : Yes Forced : No Audio #2 ID : 3 Format : DTS Format/Info : Digital Theater Systems Codec ID : A_DTS Duration : 25 min 56 s Bit rate mode : Constant Bit rate : 1 509 kb/s Channel(s) : 2 channels Channel layout : L R Sampling rate : 48.0 kHz Frame rate : 93.750 FPS (512 SPF) Bit depth : 24 bits Compression mode : Lossy Stream size : 280 MiB (33%) Title : JAP DTS 1509 Kbps 2.0 Language : Japanese Default : No Forced : No Text #1 ID : 4 Format : PGS Codec ID : S_HDMV/PGS Codec ID/Info : Picture based subtitle format used on BDs/HD-DVDs Duration : 25 min 34 s Bit rate : 32.5 kb/s Frame rate : 0.523 FPS Count of elements : 802 Stream size : 5.95 MiB (1%) Title : GER FULL PGS Language : German Default : No Forced : No Text #2 ID : 5 Format : VobSub Codec ID : S_VOBSUB Codec ID/Info : Picture based subtitle format used on DVDs Duration : 25 min 34 s Bit rate : 12.6 kb/s Frame rate : 0.262 FPS Count of elements : 402 Stream size : 2.30 MiB (0%) Title : GER FULL VOB Language : German Default : No Forced : No Menu 00:00:00.000 : en:INTRO 00:00:53.470 : en:CHAPTER 1 00:11:51.044 : en:CHAPTER 2 & ENDING SONG 00:25:31.447 : en:NEXT TIME ```

File list

  • Charlotte.German.2015.DL.DTS.Anime.Bluray.10Bit.1080P.X265-Flower
    • charlotte.01.ich.stelle.mir.vor.ein.anderer.zu.sein.1080p.x265.mkv (846.5 MiB)
    • charlotte.02.der.rythmus.der.verzweiflung.1080p.x265.mkv (801.6 MiB)
    • charlotte.03.liebe.und.flammen.1080p.x265.mkv (814.0 MiB)
    • charlotte.04.der.ernst.des.augenblicks.1080p.x265.mkv (867.3 MiB)
    • charlotte.05.ein.vertrauter.klang.1080p.x265.mkv (855.5 MiB)
    • charlotte.06.unbemerktes.glueck.1080p.x265.mkv (839.8 MiB)
    • charlotte.07.am.ende.der.flucht.1080p.x265.mkv (793.5 MiB)
    • charlotte.08.zufaellige.begegnung.1080p.x265.mkv (819.2 MiB)
    • charlotte.09.eine.andere.welt.1080p.x265.mkv (820.6 MiB)
    • charlotte.10.raub.1080p.x265.mkv (756.4 MiB)
    • charlotte.11.charlotte.1080p.x265.mkv (796.3 MiB)
    • charlotte.12.versprechen.1080p.x265.mkv (751.5 MiB)
    • charlotte.13.was.ich.von.nun.an.aufzeichnen.werde.1080p.x265.mkv (833.2 MiB)
    • charlotte.special.starke.persoenlichkeiten.1080p.x265.mkv (759.8 MiB)