[Anime Land] Believer 2 (2023) (Netflix 1080p HEVC HDR10 EAC3 Atmos) KOREAN [7F5C390A].mkv :: Nyaa ISS

[Anime Land] Believer 2 (2023) (Netflix 1080p HEVC HDR10 EAC3 Atmos) KOREAN [7F5C390A].mkv

Category:
Date:
2024-04-05 08:18 UTC
Submitter:
Seeders:
12
Information:
No information.
Leechers:
0
File size:
2.1 GiB
Completed:
2256
Info hash:
a88918e9807204e4e32ca2d63d6964879242fb2a
![alt text](https://i.mydramalist.com/x4myz3_4f.jpg "Logo Title Text 1") ![alt text](https://media.fotki.com/2v2ed2G3nxBcWUV.jpg "Logo Title Text 1") ```javascript General Unique ID : 142314089298364651274250415433447272087 (0x6B10B254F42B8D80C85D5E5412CE6E97) Complete name : [Anime Land] Believer 2 (2023) (Netflix 1080p HEVC HDR10 EAC3 Atmos) KOREAN [7F5C390A].mkv Format : Matroska Format version : Version 4 File size : 2.12 GiB Duration : 1 h 56 min Overall bit rate : 2 620 kb/s Frame rate : 23.976 FPS Movie name : [Anime Land] Believer 2 (2023) (Netflix 1080p HEVC HDR10 EAC3 Atmos) KOREAN [RIP By Omar] Encoded date : 2024-04-05 08:06:11 UTC Writing application : mkvmerge v83.0 ('Circle Of Friends') 64-bit Writing library : libebml v1.4.5 + libmatroska v1.7.1 Attachments : BAHIJ_MITRA-BOLD.TTF Video ID : 1 Format : HEVC Format/Info : High Efficiency Video Coding Format profile : Main 10@L4@Main HDR format : Dolby Vision, Version 1.0, dvhe.08.03, BL+RPU, HDR10 compatible / SMPTE ST 2086, HDR10 compatible Codec ID : V_MPEGH/ISO/HEVC Duration : 1 h 56 min Bit rate : 1 861 kb/s Width : 1 920 pixels Height : 1 080 pixels Display aspect ratio : 16:9 Frame rate mode : Constant Frame rate : 23.976 (24000/1001) FPS Color space : YUV Chroma subsampling : 4:2:0 (Type 2) Bit depth : 10 bits Bits/(Pixel*Frame) : 0.037 Stream size : 1.51 GiB (71%) Title : HDR10, 1080p (NetFlix) Language : Korean Default : Yes Forced : No Color range : Limited Color primaries : BT.2020 Transfer characteristics : PQ Matrix coefficients : BT.2020 non-constant Mastering display color pri : Display P3 Mastering display luminance : min: 0.0001 cd/m2, max: 1000 cd/m2 Maximum Content Light Level : 986 cd/m2 Maximum Frame-Average Light : 361 cd/m2 Audio ID : 2 Format : E-AC-3 JOC Format/Info : Enhanced AC-3 with Joint Object Coding Commercial name : Dolby Digital Plus with Dolby Atmos Codec ID : A_EAC3 Duration : 1 h 54 min Bit rate mode : Constant Bit rate : 768 kb/s Channel(s) : 6 channels Channel layout : L R C LFE Ls Rs Sampling rate : 48.0 kHz Frame rate : 31.250 FPS (1536 SPF) Compression mode : Lossy Stream size : 628 MiB (29%) Title : EAC3 Atmos 768 Kbps 5.1 (NetFlix) Language : Korean Service kind : Complete Main Default : Yes Forced : No Complexity index : 16 Number of dynamic objects : 15 Bed channel count : 1 channel Bed channel configuration : LFE Text #1 ID : 3 Format : UTF-8 Codec ID : S_TEXT/UTF8 Codec ID/Info : UTF-8 Plain Text Duration : 1 h 43 min Bit rate : 45 b/s Frame rate : 0.178 FPS Count of elements : 1109 Stream size : 34.4 KiB (0%) Title : KOREAN-SRT Sub (NetFlix) Language : Korean Default : Yes Forced : No Text #2 ID : 4 Format : UTF-8 Codec ID : S_TEXT/UTF8 Codec ID/Info : UTF-8 Plain Text Duration : 1 h 43 min Bit rate : 76 b/s Frame rate : 0.290 FPS Count of elements : 1810 Stream size : 58.2 KiB (0%) Title : KOREAN-SDH-SRT Sub (NetFlix) Language : Korean Default : Yes Forced : No Text #3 ID : 5 Format : UTF-8 Codec ID : S_TEXT/UTF8 Codec ID/Info : UTF-8 Plain Text Duration : 1 h 53 min Bit rate : 35 b/s Frame rate : 0.146 FPS Count of elements : 993 Stream size : 29.1 KiB (0%) Title : JAPANESE-SRT Sub (NetFlix) Language : Japanese Default : Yes Forced : No Text #4 ID : 6 Format : UTF-8 Codec ID : S_TEXT/UTF8 Codec ID/Info : UTF-8 Plain Text Duration : 1 h 53 min Bit rate : 59 b/s Frame rate : 0.156 FPS Count of elements : 1062 Stream size : 49.8 KiB (0%) Title : RUSSIAN-SRT Sub (NetFlix) Language : Russian Default : Yes Forced : No Text #5 ID : 7 Format : UTF-8 Codec ID : S_TEXT/UTF8 Codec ID/Info : UTF-8 Plain Text Duration : 1 h 53 min Bit rate : 35 b/s Frame rate : 0.151 FPS Count of elements : 1028 Stream size : 29.5 KiB (0%) Title : SPANISH-SRT Sub (NetFlix) Language : Spanish Default : Yes Forced : No Text #6 ID : 8 Format : UTF-8 Codec ID : S_TEXT/UTF8 Codec ID/Info : UTF-8 Plain Text Duration : 1 h 53 min Bit rate : 35 b/s Frame rate : 0.148 FPS Count of elements : 1008 Stream size : 29.7 KiB (0%) Title : ITALIAN-SRT Sub (NetFlix) Language : Italian Default : Yes Forced : No Text #7 ID : 9 Format : UTF-8 Codec ID : S_TEXT/UTF8 Codec ID/Info : UTF-8 Plain Text Duration : 1 h 53 min Bit rate : 36 b/s Frame rate : 0.146 FPS Count of elements : 996 Stream size : 30.3 KiB (0%) Title : GERMAN-SRT Sub (NetFlix) Language : German Default : Yes Forced : No Text #8 ID : 10 Format : UTF-8 Codec ID : S_TEXT/UTF8 Codec ID/Info : UTF-8 Plain Text Duration : 1 h 53 min Bit rate : 35 b/s Frame rate : 0.145 FPS Count of elements : 986 Stream size : 29.2 KiB (0%) Title : FRENCH-SRT Sub (NetFlix) Language : French Default : Yes Forced : No Text #9 ID : 11 Format : UTF-8 Codec ID : S_TEXT/UTF8 Codec ID/Info : UTF-8 Plain Text Duration : 1 h 53 min Bit rate : 38 b/s Frame rate : 0.150 FPS Count of elements : 1023 Stream size : 32.0 KiB (0%) Title : ENGLISH-SRT Sub (NetFlix) Language : English Default : Yes Forced : No Text #10 ID : 12 Format : ASS Codec ID : S_TEXT/ASS Codec ID/Info : Advanced Sub Station Alpha Duration : 1 h 53 min Bit rate : 91 b/s Frame rate : 0.150 FPS Count of elements : 1018 Compression mode : Lossless Stream size : 76.2 KiB (0%) Title : ARABIC-ASS Sub (NetFlix) Language : Arabic Default : Yes Forced : No ```

File list

  • [Anime Land] Believer 2 (2023) (Netflix 1080p HEVC HDR10 EAC3 Atmos) KOREAN [7F5C390A].mkv (2.1 GiB)
please seed https://nyaa.iss.one/view/1200872

An-Land (uploader)

User
Seeding Now.