[MagicStar] Re:Revenge - Yokubou no Hate ni - EP02 [WEBDL] [1080p] [FOD] [JPN_SUB] :: Nyaa ISS

[MagicStar] Re:Revenge - Yokubou no Hate ni - EP02 [WEBDL] [1080p] [FOD] [JPN_SUB]

Category:
Date:
2024-04-19 14:29 UTC
Submitter:
Seeders:
12
Information:
Leechers:
2
File size:
947.0 MiB
Completed:
908
Info hash:
4fd775b6bb5c35de187e77fd33a1e7d6aae014e2
HD 1080p from FOD. Japanese subtitles added. ************** Support Us Ali (Zhifubao / QR code): https://i.ibb.co/FWV2ggm/1660626347125.png PayPalMe: https://www.paypal.com/paypalme/sakuragikenji BTC (USDT): 19y5NF6voysif7PeJLv86Hf186ZS1i4rwu ETH: 0x807B4eec355Cfa65500BeE65A992a9a0d8432697 LTC: LUC2dTQkte7muv5oUUuRNJimLJvi9pgZUQ ************** ![alt text](https://i.ibb.co/dQ2k20p/f39daa64ed2fb036047a24b77d8ef64389afc555c180d306532b7abaf87b7c95.jpg) ![alt text](https://i.ibb.co/GsxLrZV/Re-Revenge-Yokubou-no-Hate-ni-EP02-1080p-FOD-WEB-DL-AAC2-0-H-264-Magic-Star-mkv.jpg) ``` General Unique ID : 236113373989975030143117712628552541352 (0xB1A1C81F0C5DA8536056FF5B610FA4A8) Complete name : Re.Revenge.Yokubou.no.Hate.ni.EP02.1080p.FOD.WEB-DL.AAC2.0.H.264-MagicStar.mkv Format : Matroska Format version : Version 4 File size : 947 MiB Duration : 46 min 25 s Overall bit rate mode : Variable Overall bit rate : 2 852 kb/s Frame rate : 29.970 FPS Encoded date : 2024-04-19 03:30:40 UTC Writing application : mkvmerge v50.0.0 ('Awakenings') 64-bit Writing library : libebml v1.4.0 + libmatroska v1.6.2 Video ID : 1 Format : AVC Format/Info : Advanced Video Codec Format profile : [email protected] Format settings : CABAC / 2 Ref Frames Format settings, CABAC : Yes Format settings, Reference fra : 2 frames Codec ID : V_MPEG4/ISO/AVC Duration : 46 min 24 s Bit rate mode : Variable Bit rate : 2 658 kb/s Maximum bit rate : 15.0 Mb/s Width : 1 920 pixels Height : 1 080 pixels Display aspect ratio : 16:9 Frame rate mode : Constant Frame rate : 29.970 (29970/1000) FPS Original frame rate : 29.970 (30000/1001) FPS Color space : YUV Chroma subsampling : 4:2:0 Bit depth : 8 bits Scan type : Progressive Bits/(Pixel*Frame) : 0.043 Stream size : 882 MiB (93%) Default : Yes Forced : No Audio ID : 2 Format : AAC LC Format/Info : Advanced Audio Codec Low Complexity Codec ID : A_AAC-2 Duration : 46 min 25 s Bit rate : 192 kb/s Channel(s) : 2 channels Channel layout : L R Sampling rate : 48.0 kHz Frame rate : 46.875 FPS (1024 SPF) Compression mode : Lossy Stream size : 63.7 MiB (7%) Title : 日本語 [オリジナル] Language : Japanese Default : Yes Forced : No ```

File list