[MagicStar] Yakusoku ~ 16-nenme no Shinjitsu ~ EP02 [WEBDL] [1080p] [HULU] [JPN_SUB] :: Nyaa ISS

[MagicStar] Yakusoku ~ 16-nenme no Shinjitsu ~ EP02 [WEBDL] [1080p] [HULU] [JPN_SUB]

Category:
Date:
2024-04-19 14:29 UTC
Submitter:
Seeders:
14
Information:
Leechers:
0
File size:
1.9 GiB
Completed:
912
Info hash:
174018923610d77c39d7d737181195a64accceec
HD 1080p from HULU JAPAN. Japanese subtitles added. ************** Support Us Ali (Zhifubao / QR code): https://i.ibb.co/FWV2ggm/1660626347125.png PayPalMe: https://www.paypal.com/paypalme/sakuragikenji BTC (USDT): 19y5NF6voysif7PeJLv86Hf186ZS1i4rwu ETH: 0x807B4eec355Cfa65500BeE65A992a9a0d8432697 LTC: LUC2dTQkte7muv5oUUuRNJimLJvi9pgZUQ ************** ![alt text](https://i.ibb.co/KjwVtH9/7f65f3b9-0c5c-4668-8fa2-188baa70164db.jpg) ![alt text](https://i.ibb.co/3WBdBWz/Yakusoku-16-nenme-no-Shinjitsu-EP02-1080p-HULU-WEB-DL-AAC2-0-H-264-Magic-Star-mkv.jpg) ``` General Unique ID : 279423371889178978315895283268440641395 (0xD236FBE16A1B8568379BBF8B760D4F73) Complete name : Yakusoku.16.nenme.no.Shinjitsu.EP02.1080p.HULU.WEB-DL.AAC2.0.H.264-MagicStar.mkv Format : Matroska Format version : Version 4 File size : 1.87 GiB Duration : 42 min 52 s Overall bit rate : 6 229 kb/s Frame rate : 29.970 FPS Encoded date : 2024-04-18 23:09:02 UTC Writing application : mkvmerge v50.0.0 ('Awakenings') 64-bit Writing library : libebml v1.4.0 + libmatroska v1.6.2 Cover : Yes Attachments : cover.png Video ID : 1 Format : AVC Format/Info : Advanced Video Codec Format profile : High@L4 Format settings : CABAC / 4 Ref Frames Format settings, CABAC : Yes Format settings, Reference fra : 4 frames Codec ID : V_MPEG4/ISO/AVC Duration : 42 min 51 s Bit rate : 5 973 kb/s Width : 1 920 pixels Height : 1 080 pixels Display aspect ratio : 16:9 Frame rate mode : Constant Frame rate : 29.970 (29970/1000) FPS Original frame rate : 29.970 (30000/1001) FPS Color space : YUV Chroma subsampling : 4:2:0 Bit depth : 8 bits Scan type : Progressive Bits/(Pixel*Frame) : 0.096 Stream size : 1.79 GiB (96%) Default : Yes Forced : No Color range : Limited Color primaries : BT.709 Transfer characteristics : BT.709 Matrix coefficients : BT.709 Audio ID : 2 Format : AAC LC Format/Info : Advanced Audio Codec Low Complexity Codec ID : A_AAC-2 Duration : 42 min 52 s Bit rate : 253 kb/s Channel(s) : 2 channels Channel layout : L R Sampling rate : 48.0 kHz Frame rate : 46.875 FPS (1024 SPF) Compression mode : Lossy Stream size : 77.7 MiB (4%) Title : 日本語 [オリジナル] Language : Japanese Default : Yes Forced : No ```

File list