[MagicStar] Kimi to Yukite Saku ~ Shinsengumi Seishunroku ~ EP05 [WEBDL] [1080p] [ABEMA-TV] [JPN_SUB] :: Nyaa ISS

[MagicStar] Kimi to Yukite Saku ~ Shinsengumi Seishunroku ~ EP05 [WEBDL] [1080p] [ABEMA-TV] [JPN_SUB]

Category:
Date:
2024-05-25 15:48 UTC
Submitter:
Seeders:
6
Information:
Leechers:
4
File size:
709.9 MiB
Completed:
411
Info hash:
a9636e3767d3500206219165fd9594907cc10ff7
HD 1080p from Abema TV. Japanese subtitles added. ![alt text](https://i.ibb.co/8rGNPrP/2f87fb7f-7e51-4b98-bf20-ddca2bacfc72.jpg) ![alt text](https://i.ibb.co/hBqLWck/Kimi-to-Yukite-Saku-Shinsengumi-Seishunroku-EP05-1080p-ABEMA-TV-WEB-DL-AAC2-0-H-264-Magic-Star-mkv.jpg) ``` General Unique ID : 236656825557504145073127614702636073098 (0xB20A725A2D274B3CADE203D52EE1808A) Complete name : Kimi.to.Yukite.Saku.Shinsengumi.Seishunroku.EP05.1080p.ABEMA-TV.WEB-DL.AAC2.0.H.264-MagicStar.mkv Format : Matroska Format version : Version 4 File size : 710 MiB Duration : 23 min 38 s Overall bit rate mode : Variable Overall bit rate : 4 199 kb/s Frame rate : 29.970 FPS Encoded date : 2024-05-25 15:44:48 UTC Writing application : mkvmerge v50.0.0 ('Awakenings') 64-bit Writing library : libebml v1.4.0 + libmatroska v1.6.2 Video ID : 1 Format : AVC Format/Info : Advanced Video Codec Format profile : [email protected] Format settings : CABAC / 4 Ref Frames Format settings, CABAC : Yes Format settings, Reference fra : 4 frames Codec ID : V_MPEG4/ISO/AVC Duration : 23 min 38 s Bit rate mode : Variable Bit rate : 4 004 kb/s Maximum bit rate : 40.0 Mb/s Width : 1 920 pixels Height : 1 080 pixels Display aspect ratio : 16:9 Frame rate mode : Constant Frame rate : 29.970 (29970/1000) FPS Original frame rate : 29.970 (30000/1001) FPS Color space : YUV Chroma subsampling : 4:2:0 Bit depth : 8 bits Scan type : Progressive Bits/(Pixel*Frame) : 0.064 Stream size : 677 MiB (95%) Default : Yes Forced : No Audio ID : 2 Format : AAC LC Format/Info : Advanced Audio Codec Low Complexity Codec ID : A_AAC-2 Duration : 23 min 38 s Bit rate : 192 kb/s Channel(s) : 2 channels Channel layout : L R Sampling rate : 44.1 kHz Frame rate : 43.066 FPS (1024 SPF) Compression mode : Lossy Stream size : 32.5 MiB (5%) Title : 日本語 [オリジナル] Language : Japanese Default : Yes Forced : No ```

File list

Thanks for all new dramas' episodes ^^